Warning! Do NOT Download Without a VPN!
Your IP Address is .   Location is
Your Internet Provider and Government can track your download activities! Hide your IP ADDRESS with a VPN!
We strongly recommend using NordVPN to anonymize your Downloading. It's FREE!
START YOUR FREE TRIAL NOW!

Torrent Details

Photo Not Available
Mission Impossible Ghost Protocol (2011) x 1600 (2160p) HDR 5 1 x265 10bit Phun Psyz
Size5.3 GB in 1 file
ReleasesAdded on 08/13/18 at 4:08am into the Movies category by Unknown.
Status8 seeds & 31 peers.
Hashd0af2b09d0d6cb378437a3274faa0e5cd8e72fa3
Rating
  • YourBT Visitors

Status This torrent has been verified.
*

Torrent Description

www.imdb.com/title/tt0317919/

The IMF is shut down when it's implicated in the bombing of the Kremlin, causing Ethan Hunt and his new team to go rogue to clear their organization's name.

Source: HDR



Format : Matroska
Format version : Version 4 / Version 2
File size : 5.27 GiB
Duration : 2 h 12 min
Overall bit rate : 5 672 kb/s

Video
ID : 1
Format : HEVC
Format/Info : High Efficiency Video Coding
Format profile : Main [email protected]@High
Codec ID : V_MPEGH/ISO/HEVC
Duration : 2 h 12 min
Bit rate : 5 239 kb/s
Width : 3 840 pixels
Height : 1 600 pixels
Display aspect ratio : 2.40:1
Frame rate mode : Constant
Frame rate : 23.976 (24000/1001) FPS
Color space : YUV
Chroma subsampling : 4:2:0
Bit depth : 10 bits
Bits/(Pixel*Frame) : 0.036
Stream size : 4.86 GiB (92%)
Writing library : x265 2.6:[Windows][GCC 7.1.0][64 bit] 10bit

Audio
ID : 2
Format : AC-3
Format/Info : Audio Coding 3
Format settings, Endianness : Big
Codec ID : A_AC3
Duration : 2 h 12 min
Bit rate mode : Constant
Bit rate : 320 kb/s
Channel(s) : 6 channels
Channel positions : Front: L C R, Side: L R, LFE
Sampling rate : 48.0 kHz
Frame rate : 31.250 FPS (1536 SPF)
Bit depth : 16 bits
Compression mode : Lossy
Stream size : 304 MiB (6%)
Title : Surround
Language : English

Text
Language : English
Language : English
Language : English
Language : English
Language : English
Language : English
Language : English
Language : French
Language : French
Language : Spanish
Language : Spanish
Language : Portuguese
Language : Italian
Language : German
Language : Dutch
Language : Swedish
Language : Norwegian
Language : Danish
Language : Finnish
Language : Japanese
Default : No
Forced : No



Similar Torrents

No Similar Torrents Found

If we find similar torrents, we normally show them right here. We couldn't find anything for "".

Torrent Trackers

TRACKER URLSEEDSPEERS
Onlineudp://tracker.coppersurfer.tk:6969/announce831
Onlineudp://tracker.open-internet.nl:6969/announce521
Onlineudp://tracker.pirateparty.gr:6969/announce420
Onlineudp://tracker.opentrackr.org:1337/announce19

Files inside this torrent

FILENAMESIZE
icon Mission Impossible Ghost Protocol (2011) x 1600 (2160p) HDR 5.1 x265 10bit Phun Psyz.mkv5.3 GB