Warning! Do NOT Download Without a VPN!
Your IP Address is .   Location is
Your Internet Provider and Government can track your download activities! Hide your IP ADDRESS with a VPN!
We strongly recommend using a VPN service to anonymize your torrent downloads. It's FREE!
START YOUR FREE TRIAL NOW!

Torrent Details

Last Flag Flying 2017 DVDScr XVID AC3 HQ <font color=#ccc>Hive-CM8</font>
Last Flag Flying 2017 DVDScr XVID AC3 HQ Hive-CM8
Size1.7 GB in 2 files
ReleasesAdded on 12/24/17 at 5:20am into the Movies category by Unknown.
Status0 seeds & 0 peers.
Hash5e03c7ca7ab69d4a5ccfdc2a04047a4f61db3fb4
Rating
  • YourBT Visitors

Status This torrent has been verified.
*

Torrent Description

Last Flag Flying 2017 DVDScr XVID AC3 HQ Hive-CM8




Last.Flag.Flying.2017.DVDScr.XVID.AC3.HQ.Hive-CM8


Thx Hive

CM8 Doing It Right The First Time

Source: a cool dude on the street
thx

Notes:
we decided to make one rls before christmas, not on christmas we are the nice ones.
in this spirit, merry Christmas and stay tuned

Encode:
quality was nice, not much to do
enjoy


Screeners:
We are still missing downsizing, hostiles and phantom thread, anyone want to share for the collection?
Yes we want to have them all if possible, we are collectors, we dont want to release them all.
Theire will be no starwars from us, sorry wont happen
Don't post info public or on any blog its too risky, it has to be done safely and secure in private, and we have proven that we can do it.
Msg us [email protected] - we will respect your wishes
if you want to share with us in private it will stay private

Video: 720x384 @bitrate 1600 2pass
Audio: English Stereo
Sample: yes included


http://www.imdb.com/title/tt6018306


General
Complete name : Last.Flag.Flying.2017.DVDScr.XVID.AC3.HQ.Hive-CM8.avi
Format : AVI
Format/Info : Audio Video Interleave
File size : 1.65 GiB
Duration : 2h 3mn
Overall bit rate : 1 913 Kbps
Writing application : Nandub v1.0rc2
Writing library : Nandub build 1853/release

Video
ID : 0
Format : MPEG-4 Visual
Format profile : Advanced [email protected]
Format settings, BVOP : 2
Format settings, QPel : Yes
Format settings, GMC : No warppoints
Format settings, Matrix : Default (H.263)
Muxing mode : Packed bitstream
Codec ID : XVID
Codec ID/Hint : XviD
Duration : 2h 3mn
Bit rate : 1 645 Kbps
Width : 720 pixels
Height : 384 pixels
Display aspect ratio : 1.85:1
Frame rate : 29.970 fps
Color space : YUV
Chroma subsampling : 4:2:0
Bit depth : 8 bits
Scan type : Progressive
Compression mode : Lossy
Bits/(Pixel*Frame) : 0.199
Stream size : 1.42 GiB (86%)
Writing library : XviD 1.2.1 (UTC 2008-12-04)

Audio
ID : 1
Format : AC-3
Format/Info : Audio Coding 3
Mode extension : CM (complete main)
Format settings, Endianness : Big
Codec ID : 2000
Duration : 2h 3mn
Bit rate mode : Constant
Bit rate : 256 Kbps
Channel(s) : 2 channels
Channel positions : Front: L R
Sampling rate : 48.0 KHz
Bit depth : 16 bits
Compression mode : Lossy
Delay relative to video : 20ms
Stream size : 226 MiB (13%)
Alignment : Split accross interleaves
Interleave, duration : 33 ms (1.00 video frame)
Interleave, preload duration : 500 ms

screens;



Similar Torrents

No Similar Torrents Found

If we find similar torrents, we normally show them right here. We couldn't find anything for "".

Torrent Trackers

Files inside this torrent

FILENAMESIZE
icon Last.Flag.Flying.2017.DVDScr.XVID.AC3.HQ.Hive-CM8.avi1.6 GB
icon sample.avi8.9 MB